Latest Movie :
Home » , » Fukrey Returns (2017) - 720p - PreDVDRip - Hindi - x264 - AC3 - Mafiaking - M2Tv

Fukrey Returns (2017) - 720p - PreDVDRip - Hindi - x264 - AC3 - Mafiaking - M2Tv

{[['']]}

Poster


iMDB
Imdb Picture Title: Fukrey Returns
Year: 2017
Runtime: 141 minutes
Votes: 83
Rating: 8.3/10
Language: Hindi
Country: India
All Genres: Comedy, Drama, Romance
Plot Outline: Mayhem continues in the sequel to Fukrey (2013).
Director: Mrighdeep Lamba
Writing By: Vipul Vig,Vipul Vig,Mrighdeep Lamba,
Produced By: Farhan Akhtar,Vikesh Bhutani,Stuti Ramachandra,Ritesh Sidhwani,
Music: Sameer Uddin
Cast:
Pulkit Samrat as Hunny
Manjot Singh as Lali
Ali Fazal as Zafar
Varun Sharma as Choocha
Priya Anand as Priya
Vishakha Singh as Neetu Singh
Pankaj Tripathi as Pandit
Richa Chadha as Bholi Punjaban
Vijay Kumar Dogra as Bank Executive
Ajaz Khan as



Details
Name:Fukrey Returns (2017) - 720p - PreDVDRip - Hindi - x264 - AC3 - Mafiaking - M2Tv
Description:



Genere: Comedy, Drama, Romance

General
Complete name : Fukrey Returns (2017) - 720p - PreDVDRip - Hindi - x264 - AC3 - Mafiaking - M2Tv.mkv
Format : Matroska
Format version : Version 4 / Version 2
File size : 1.02 GiB
Duration : 2 h 15 min
Overall bit rate : 1 080 kb/s
Movie name : Fukrey Returns (2017) - 720p - PreDVDRip - Hindi - x264 - AC3 - Mafiaking - M2Tv

Video
ID : 1
Format : AVC
Format/Info : Advanced Video Codec
Format profile : High@L3.1
Format settings, CABAC : Yes
Format settings, RefFrames : 4 frames
Codec ID : V_MPEG4/ISO/AVC
Duration : 2 h 15 min
Bit rate : 950 kb/s
Width : 1 280 pixels
Height : 544 pixels
Display aspect ratio : 2.35:1
Frame rate mode : Constant
Frame rate : 29.970 (30000/1001) FPS
Color space : YUV
Chroma subsampling : 4:2:0
Bit depth : 8 bits
Scan type : Progressive
Bits/(Pixel*Frame) : 0.046
Stream size : 918 MiB (88%)
Title : Mafiaking
Language : Hindi
Default : Yes
Forced : No

Audio
ID : 2
Format : AC-3
Format/Info : Audio Coding 3
Format settings, Endianness : Big
Codec ID : A_AC3
Duration : 2 h 15 min
Bit rate mode : Constant
Bit rate : 128 kb/s
Channel(s) : 2 channels
Channel positions : Front: L R
Sampling rate : 48.0 kHz
Frame rate : 31.250 FPS (1536 SPF)
Bit depth : 16 bits
Compression mode : Lossy
Stream size : 124 MiB (12%)
Title : Mafiaking
Language : Hindi
Service kind : Complete Main
Default : Yes
Forced : No


**To View Image In Full Size Click on Thumbnails**

image image image image image image image image image image image image image image
Category:Movies > Bollywood
Lang:Hindi
Total Size:1.03 GB

Sample
Download-Links-300x90

|| Download This Movie Via Single Resumable Links Size: 930 MB ||

Direct-1 Google Drive | Direct-2 | Direct-3 |

Watch Online Click Here

Share this article :

Post a Comment

 
Support : Website | Designed By | Katyayan
Copyright © 2017. Pre-Releaser Movies Club - All Rights Reserved
Website Created And Designed By Katyayan
Proudly powered by Blogger