Latest Movie :
Home » , » Justice League (2017) Hindi [New Clear Audio] 720p HDTS x264 AC3

Justice League (2017) Hindi [New Clear Audio] 720p HDTS x264 AC3

{[['']]}

Poster


iMDB
Imdb Picture Title: Justice League
Year: 2017
Language: English
Country: USA
All Genres: Action, Adventure, Fantasy, Sci-Fi
Plot Outline: Fueled by his restored faith in humanity and inspired by Superman's selfless act, Bruce Wayne enlists the help of his newfound ally, Diana Prince, to face an even greater enemy.
Tagline: Unite
Director: Zack Snyder
Writing By: Chris Terrio,Joss Whedon,Zack Snyder,Chris Terrio,Bob Kane,Bill Finger,William Moulton Marston,Joe Shuster,Jerry Siegel,
Produced By: Ben Affleck,Jon Berg,Wesley Coller,Jose MarĂ­a de La Puente,Finni Johannsson,Geoff Johns,Charles Roven,Deborah Snyder,Chris Terrio,Andrea Wertheim,Gregor Wilson,
Music: Danny Elfman
Cast:
Gal Gadot as Diana Prince / Wonder Woman
Robin Wright as Antiope
Jason Momoa as Arthur Curry / Aquaman
Connie Nielsen as Queen Hippolyta
Amy Adams as Lois Lane
Ben Affleck as Bruce Wayne / Batman
Ezra Miller as Barry Allen / The Flash
Amber Heard as Mera
Henry Cavill as Clark Kent / Superman
Diane Lane as Martha Kent
Trailers:
Official Heroes Trailer
Comic-Con Sneak Peek
Official Trailer
Special Comic-Con Footage

Details
Name:Justice League (2017) HDTS {Dual Audio} [Hindi + English] x264 800MB
Description:
Justice League (2017) HDTS {Dual Audio} [Hindi + English] x264 800MB

< First On Net in Hindi >

 

Complete name                            : Justice League 2017 Hindi [New Clear Audio] 720p HDTS x264 AC3 - ExtraMovies.mkv
Format                                   : Matroska
Format version                           : Version 4 / Version 2
File size                                : 936 MiB
Duration                                 : 1 h 49 min
Overall bit rate                         : 1 192 kb/s
Movie name                               : ExtraMovies.cc - Justice League 2017 720p HDTS Hindi Dubbed x264 AAC
Encoded date                             : UTC 2017-11-24 15:12:24
Writing application                      : mkvmerge v17.0.0 ('Be Ur Friend') 64-bit
Writing library                          : libebml v1.3.5 + libmatroska v1.4.8

Video
ID                                       : 1
Format                                   : AVC
Format/Info                              : Advanced Video Codec
Format profile                           : High@L4.1
Format settings                          : CABAC / 8 Ref Frames
Format settings, CABAC                   : Yes
Format settings, RefFrames               : 8 frames
Codec ID                                 : V_MPEG4/ISO/AVC
Duration                                 : 1 h 49 min
Bit rate                                 : 999 kb/s
Width                                    : 1 280 pixels
Height                                   : 544 pixels
Display aspect ratio                     : 2.35:1
Frame rate mode                          : Variable
Frame rate                               : 23.976 (24000/1001) FPS
Color space                              : YUV
Chroma subsampling                       : 4:2:0
Bit depth                                : 8 bits
Scan type                                : Progressive
Bits/(Pixel*Frame)                       : 0.060
Stream size                              : 784 MiB (84%)
Title                                    : ExtraMovies.cc
Writing library                          : x264 core 142 r2479 dd79a61
Encoding settings                        : cabac=1 / ref=8 / deblock=1:0:0 / analyse=0x3:0x113 / me=umh / subme=9 / psy=1 / psy_rd=1.00:0.00 / mixed_ref=1 / me_range=16 / chroma_me=1 / trellis=2 / 8x8dct=1 / cqm=0 / deadzone=21,11 / fast_pskip=1 / chroma_qp_offset=-2 / threads=12 / lookahead_threads=1 / sliced_threads=0 / nr=0 / decimate=1 / interlaced=0 / bluray_compat=0 / constrained_intra=0 / bframes=3 / b_pyramid=2 / b_adapt=2 / b_bias=0 / direct=3 / weightb=1 / open_gop=0 / weightp=2 / keyint=240 / keyint_min=24 / scenecut=40 / intra_refresh=0 / rc_lookahead=40 / rc=2pass / mbtree=1 / bitrate=999 / ratetol=1.0 / qcomp=0.60 / qpmin=0 / qpmax=69 / qpstep=4 / cplxblur=20.0 / qblur=0.5 / vbv_maxrate=62500 / vbv_bufsize=78125 / nal_hrd=none / filler=0 / ip_ratio=1.40 / aq=1:1.00
Default                                  : Yes
Forced                                   : No
Color range                              : Limited
Color primaries                          : BT.709
Transfer characteristics                 : BT.709
Matrix coefficients                      : BT.709

Audio
ID                                       : 2
Format                                   : AC-3
Format/Info                              : Audio Coding 3
Format settings, Endianness              : Big
Codec ID                                 : A_AC3
Duration                                 : 1 h 49 min
Bit rate mode                            : Constant
Bit rate                                 : 192 kb/s
Channel(s)                               : 2 channels
Channel positions                        : Front: L R
Sampling rate                            : 48.0 kHz
Frame rate                               : 31.250 FPS (1536 SPF)
Bit depth                                : 16 bits
Compression mode                         : Lossy
Delay relative to video                  : -117 ms
Stream size                              : 151 MiB (16%)
Title                                    : ExtraMovies.cc
Language                                 : Hindi
Service kind                             : Complete Main
Default                                  : Yes
Forced                                   : No

           
Category:Movies > Hollywood Dub
Lang:Hindi
Total Size:936.39 MB

Sample
Download-Links-300x90

|| Download This Movie Via Single Resumable Links Size: 936 MB ||

Direct-1 Google Drive | Direct-2 | Direct-3 |

Watch Online Click Here

Share this article :

Post a Comment

 
Support : Website | Designed By | Katyayan
Copyright © 2017. Pre-Releaser Movies Club - All Rights Reserved
Website Created And Designed By Katyayan
Proudly powered by Blogger