Latest Movie :
Home » , » War for the Planet of the Apes (2017) 720p HC HDRip x264

War for the Planet of the Apes (2017) 720p HC HDRip x264

{[['']]}

Poster


iMDB
Imdb Picture Title: War for the Planet of the Apes
Year: 2017
Runtime: 140 minutes
Votes: 6132
Rating: 8.3/10
Language: English, American Sign Language
Country: USA
All Genres: Action, Adventure, Drama, Sci-Fi, Thriller
Plot Outline: After the apes suffer unimaginable losses, Caesar wrestles with his darker instincts and begins his own mythic quest to avenge his kind.
Tagline: For freedom. For family. For the planet.
Director: Matt Reeves
Writing By: Mark Bomback,Matt Reeves,Rick Jaffa,Amanda Silver,Pierre Boulle,
Produced By: Mark Bomback,Peter Chernin,Dylan Clark,Rick Jaffa,Mary McLaglen,Amanda Silver,Ryan Stafford,Jenno Topping,
Music: Michael Giacchino
Plot:
Caesar and his apes are forced into a deadly conflict with an army of humans led by a ruthless Colonel. After the apes suffer unimaginable losses, Caesar wrestles with his darker instincts and begins his own mythic quest to avenge his kind. As the journey finally brings them face to face, Caesar and the Colonel are pitted against each other in an epic battle that will determine the fate of both their species and the future of the planet.
- Written by Twentieth Century Fox
After the apes suffer unimaginable losses, Caesar wrestles with his darker instincts and begins his own mythic quest to avenge his kind.
- Written by Twentieth Century Fox
Cast:
Andy Serkis as Caesar
Woody Harrelson as The Colonel
Steve Zahn as Bad Ape
Karin Konoval as Maurice
Amiah Miller as Nova
Terry Notary as Rocket
Ty Olsson as Red Donkey
Michael Adamthwaite as Luca
Toby Kebbell as Koba
Gabriel Chavarria as Preacher
Trailers:
New International Trailer
Final Trailer
Trailer #2
Official Trailer
Official Teaser #1
So Emotional


Details
Name:War for the Planet of the Apes (2017) 720p HC HDRip x264 MkvCage
Description:


-:RELEASE NOTES:-

IMDb:- http://www.imdb.com/title/tt3450958
Movie Title: War for the Planet of the Apes (2017)
Director: Matt Reeves
Stars: Andy Serkis, Woody Harrelson, Steve Zahn
Release Date: 11 July 2017 (UK)
Genres: Action, Adventure, Drama
Format: MatRoska (Mkv)
File Size: 1GB
Resolution: 1280x720
Runtime: 02:18:50
Language: English
Subtitles: HC Korean
Encoder: MkvCage (MC) Team
Source: 720p.HDRip.KORSUB.x264-P2P

-:  MediaInfo  :-


   Format                      : Matroska
   Format version              : Version 4 / Version 2
   File size                   : 1.06 GiB
   Duration                    : 2 h 18 min
   Overall bit rate            : 1 091 kb/s
   Movie name                  : War.For.The.Planet.Of.The.Apes.2017.720p.HC.HDRip.MkvCage

   Video

   ID                          : 2
   Format                      : AVC
   Format/Info                 : Advanced Video Codec
   Format profile              : High@L4.1
   Format settings, CABAC      : Yes
   Format settings, RefFrames  : 5 frames
   Codec ID                    : V_MPEG4/ISO/AVC
   Duration                    : 2 h 18 min
   Bit rate                    : 1 025 kb/s
   Width                       : 1 280 pixels
   Height                      : 720 pixels
   Display aspect ratio        : 16:9
   Frame rate mode             : Constant
   Frame rate                  : 30.000 FPS
   Color space                 : YUV
   Chroma subsampling          : 4:2:0
   Bit depth                   : 8 bits
   Scan type                   : Progressive
   Bits/(Pixel*Frame)          : 0.037
   Stream size                 : 1 017 MiB (94%)
   Default                     : Yes
   Forced                      : No

   
Audio

   ID                          : 1
   Format                      : AAC
   Format/Info                 : Advanced Audio Codec
   Format profile              : HE-AAC / LC
   Codec ID                    : A_AAC
   Duration                    : 2 h 18 min
   Bit rate                    : 64.0 kb/s
   Channel(s)                  : 2 channels
   Channel positions           : Front: L R
   Sampling rate               : 22.05 kHz / 11.025 kHz
   Frame rate                  : 10.767 FPS (1024 SPF)
   Compression mode            : Lossy
   Delay relative to video     : 67 ms
   Stream size                 : 63.6 MiB (6%)
   Language                    : English
   Default                     : Yes
   Forced                      : No



-:SCREENSHOTS:-

                   
Category:Movies > HDRips
Lang:English  English
Total Size:1.06 GB



Download-Links-300x90

|| Download This Movie Via Single Resumable Links Size: 1.06 GB ||

Direct-1 Google Drive | Direct-2 | Direct-3 |

Watch Online Click Here

Share this article :

Post a Comment

 
Support : Website | Designed By | Katyayan
Copyright © 2017. Pre-Releaser Movies Club - All Rights Reserved
Website Created And Designed By Katyayan
Proudly powered by Blogger