Latest Movie :
Home » , » Pirates of the Caribbean: Dead Men Tell No Tales (2017) 720p HDRip x264 {Dual Audio} [Hindi Cleaned 2.0 - English 5.1]

Pirates of the Caribbean: Dead Men Tell No Tales (2017) 720p HDRip x264 {Dual Audio} [Hindi Cleaned 2.0 - English 5.1]

{[['']]}

Poster


iMDB
Imdb Picture Title: Pirates of the Caribbean: Dead Men Tell No Tales
Year: 2017
Runtime: 129 minutes
Votes: 9818
Rating: 7.5/10
Language: English
Country: USA
All Genres: Action, Adventure, Fantasy
Plot Outline: Captain Jack Sparrow searches for the trident of Poseidon.
Director: Joachim Rønning
Espen Sandberg
Writing By: Jeff Nathanson,Jeff Nathanson,Terry Rossio,Ted Elliott,Terry Rossio,Stuart Beattie,Jay Wolpert,
Produced By: Jerry Bruckheimer,Joseph M. Caracciolo Jr.,Chad Oman,Melissa Reid,Terry Rossio,Mike Stenson,Brigham Taylor,
Music: Geoff Zanelli
Plot:
Captain Jack Sparrow finds the winds of ill-fortune blowing even more strongly when deadly ghost pirates led by his old nemesis, the terrifying Captain Salazar, escape from the Devil's Triangle, determined to kill every pirate at sea...including him. Captain Jack's only hope of survival lies in seeking out the legendary Trident of Poseidon, a powerful artifact that bestows upon its possessor total control over the seas.
Johnny Depp returns to the big screen as the iconic, swashbuckling anti-hero Jack Sparrow in the all-new "Pirates of the Caribbean: Dead Men Tell No Tales." The rip-roaring adventure finds down-on-his-luck Captain Jack feeling the winds of ill-fortune blowing strongly his way when deadly ghost sailors, led by the terrifying Captain Salazar, escape from the Devil's Triangle bent on killing every pirate at sea - notably Jack. Jack's only hope of survival lies in the legendary Trident of Poseidon, but to find it he must forge an uneasy alliance with Carina Smyth, a brilliant and beautiful astronomer, and Henry, a headstrong young sailor in the Royal Navy. At the helm of the Dying Gull, his pitifully small and shabby ship, Captain Jack seeks not only to reverse his recent spate of ill fortune, but to save his very life from the most formidable and malicious foe he has never faced.
Thrust into an all-new adventure, a down-on-his-luck Captain Jack Sparrow finds the winds of ill-fortune blowing even more strongly when deadly ghost pirates led by his old nemesis, the terrifying Captain Salazar, escape from the Devil's Triangle, determined to kill every pirate at sea... including him. Captain Jack's only hope of survival lies in seeking out the legendary Trident of Poseidon, a powerful artifact that bestows upon its possessor total control over the seas.
When deadly ghost pirates led by his old nemesis, the terrifying Captain Salazar escape from the Devil's Triangle, determined to kill every pirate at sea, Captain Jack's only hope of survival lies in seeking out the legendary Trident of Poseidon, a powerful artifact that bestows upon its possessor total control over the seas.
- Written by Spike Powers
Jack is back! On this fifth installment of the Pirates of the Caribbean movies, Jack's luck has run out. Captain Salazar has released the most deadly ghost pirates of the sea from the devil's Triangle. Captain Salazar is the oldest villain of Jack Sparrow. The ghost pirates hunt on every single pirate on sea, including Jack Sparrow. The only hope to survive this adventure is to collect the legendary Trident of Poseidon. This weapon is the most powerful weapon and the owner gets control of all seas. Is Jack going to collect this powerful weapon and can he ensure he is not going to get killed by Captain Salazar and his pirate ghosts?
- Written by M.W.A. Haertel
Captain Jack Sparrow searches for the trident of Poseidon.

Cast:
Johnny Depp as Captain Jack Sparrow
Javier Bardem as Captain Salazar
Geoffrey Rush as Captain Hector Barbossa
Brenton Thwaites as Henry Turner
Kaya Scodelario as Carina Smyth
Kevin McNally as Gibbs
Golshifteh Farahani as Shansa
David Wenham as Scarfield
Stephen Graham as Scrum
Angus Barnett as Mullroy
Trailers:
Pirate's Death TV Spot
Official Trailer
Super Bowl Spot
Teaser Trailer


     

Details
Name:Pirates of the Caribbean: Dead Men Tell No Tales (2017) HDRip x264 Dual Audio [Hindi Cleaned 2....
Description:
Pirates of the Caribbean: Dead Men Tell No Tales (2017) HDRip x264 Dual Audio [Hindi Cleaned 2.0 - English 5.1] - Ranvijay




Format : Matroska
Format version : Version 4 / Version 2
File size : 1.32 GiB
Duration : 2 h 9 min
Overall bit rate : 1 463 kb/s

Video
ID : 1
Format : AVC
Format/Info : Advanced Video Codec
Format profile : High@L4.1
Format settings, CABAC : Yes
Format settings, RefFrames : 5 frames
Codec ID : V_MPEG4/ISO/AVC
Duration : 2 h 9 min
Bit rate : 949 kb/s
Width : 1 280 pixels
Height : 536 pixels
Display aspect ratio : 2.40:1
Frame rate mode : Constant
Frame rate : 23.976 (24000/1001) FPS
Color space : YUV
Chroma subsampling : 4:2:0
Bit depth : 8 bits
Scan type : Progressive
Bits/(Pixel*Frame) : 0.058
Stream size : 876 MiB (65%)
Default : Yes
Forced : No
Color range : Limited
Color primaries : BT.709
Matrix coefficients : BT.709

Audio #1
ID : 2
Format : AAC
Format/Info : Advanced Audio Codec
Format profile : LC
Codec ID : A_AAC
Duration : 2 h 9 min
Bit rate : 128 kb/s
Channel(s) : 2 channels
Channel positions : Front: L R
Sampling rate : 48.0 kHz
Frame rate : 46.875 FPS (1024 SPF)
Compression mode : Lossy
Stream size : 118 MiB (9%)
Language : Hindi
Default : Yes
Forced : No

Audio #2
ID : 3
Format : AC-3
Format/Info : Audio Coding 3
Format settings, Endianness : Big
Codec ID : A_AC3
Duration : 2 h 9 min
Bit rate mode : Constant
Bit rate : 384 kb/s
Channel(s) : 6 channels
Channel positions : Front: L C R, Side: L R, LFE
Sampling rate : 48.0 kHz
Frame rate : 31.250 FPS (1536 SPF)
Bit depth : 16 bits
Compression mode : Lossy
Stream size : 355 MiB (26%)
Language : English
Service kind : Complete Main
Default : No
Forced : No

Text #1
ID : 4
Format : SSA
Codec ID : S_TEXT/SSA
Codec ID/Info : Sub Station Alpha
Duration : 1 h 58 min
Bit rate : 99 b/s
Count of elements : 1207
Compression mode : Lossless
Stream size : 85.7 KiB (0%)
Language : English
Default : No
Forced : No

-::ScreenShots::-

                     
Category:Movies > Hollywood Dub
Lang:Hindi
Total Size:1.32 GB



Download-Links-300x90

|| Download This Movie Via Single Resumable Links Size: 1.32 GB ||

Direct-1 Google Drive | Direct-2 | Direct-3 |

Watch Online Click Here

Share this article :

Post a Comment

 
Support : Website | Designed By | Katyayan
Copyright © 2017. Pre-Releaser Movies Club - All Rights Reserved
Website Created And Designed By Katyayan
Proudly powered by Blogger