Latest Movie :
Home » » Judwaa 2 (2017) - Pre DvDScr Rip - 857 - Mpeg With Ads

Judwaa 2 (2017) - Pre DvDScr Rip - 857 - Mpeg With Ads

{[['']]}

Poster


iMDB
Imdb Picture Title: Judwaa 2
Year: 2017
Runtime: 145 minutes
Votes: 206
Rating: 4.0/10
Language: Hindi
Country: India
All Genres: Action, Comedy, Drama, Musical, Romance
Plot Outline: Prem and Raja are twin brothers who are seperated at birth but are uniquely connected to eachother via their reflexes. They reunite as adults and set out to take down the underground smuggling world.
Director: David Dhawan
Writing By: Yunus Sajawal,Farhad Samji,Sajid,
Produced By: Firuzi Khan,Rakesh Madhotra,Manoj Mittra,Ronak Motla,Sajid Nadiadwala,Sudipto Sarkar,
Music: Sandeep Shirodkar
Cast:
Salman Khan as
Anupam Kher as
Jacqueline Fernandez as Alishka
Tapsee Pannu as Samaara
Varun Dhawan as Raja / Prem
Fernanda Diniz as Anita
Donna Preston as Nancy
Chiara Lucotti as Nurse
Rajpal Yadav as
Kevin Matadeen as Student
Trailers:
Official 'Judwaa 2' Theatrical Trailer


Details
Name:Judwaa 2 (2017) - Pre DvDScr Rip - 857 - Mpeg
Description:
  Judwaa 2 (2017) - Pre DvDScr Rip -
857 - Mpeg




General
Format                                   : MPEG-PS
File size                                : 858 MiB
Duration                                 : 2 h 47 min

Video
ID                                       : 224 (0xE0)
Format                                   : MPEG Video
Format version                           : Version 2
Format profile                           : Main@Low
Format settings                          : CustomMatrix / BVOP
Format settings, BVOP                    : Yes
Format settings, Matrix                  : Custom
Format settings, GOP                     : Variable
Duration                                 : 2 h 47 min
Bit rate mode                            : Constant
Bit rate                                 : 640 kb/s
Width                                    : 352 pixels
Height                                   : 288 pixels
Display aspect ratio                     : 4:3
Frame rate                               : 25.000 FPS
Standard                                 : PAL
Color space                              : YUV
Chroma subsampling                       : 4:2:0
Bit depth                                : 8 bits
Scan type                                : Progressive
Stream size                              : 764 MiB (89%)

Audio
ID                                       : 192 (0xC0)
Format                                   : MPEG Audio
Format version                           : Version 1
Format profile                           : Layer 2
Duration                                 : 2 h 47 min
Bit rate mode                            : Constant
Bit rate                                 : 64.0 kb/s
Channel(s)                               : 2 channels
Sampling rate                            : 48.0 kHz
Compression mode                         : Lossy
Stream size                              : 76.9 MiB (9%)

Thumbnail
Category:Movies > Bollywood
Lang:Hindi
Total Size:857.54 MB



Download-Links-300x90

|| Download This Movie Via Single Resumable Links Size: 855 GB ||

Direct-1 | Direct-2 | Direct-3 |

Watch Online Click Here

Share this article :

Post a Comment

 
Support : Website | Designed By | Katyayan
Copyright © 2017. Pre-Releaser Movies Club - All Rights Reserved
Website Created And Designed By Katyayan
Proudly powered by Blogger