Latest Movie :
Home » , » Jagga Jasoos (2017) (2CD) DTH Rip x264 - AC3 (5.1Ch) With Ads

Jagga Jasoos (2017) (2CD) DTH Rip x264 - AC3 (5.1Ch) With Ads

{[['']]}

Poster


iMDB
Imdb Picture Title: Jagga Jasoos
Year: 2017
Runtime: 180 minutes
Votes: 457
Rating: 7.3/10
Language: Hindi
Country: India
All Genres: Action, Adventure, Comedy, Family, Musical, Mystery, Romance
Plot Outline: Join Jagga, a gifted teenage detective, who along with a female companion, is on a quest to find his missing father.
Director: Anurag Basu
Writing By: Anurag Basu,
Produced By: Jamal Araissi,Anurag Basu,Tani Basu,Ranbir Kapoor,Siddharth Roy Kapur,Amrita Pandey,Bimal Parekh,
Music: Pritam Chakraborty
Plot:
Join Jagga, a gifted teenage detective, who along with a female companion, is on a quest to find his missing father.
- Written by Md Rehmat
Cast:
Chitrak Bandyopadhyay as Debu
Saswata Chatterjee as Jagga's Father
Sanjay Dutt as Narrator
Govinda as Cameo
Sayani Gupta as Little Girl
Katrina Kaif as Shruti
Ranbir Kapoor as Jagga
Mir Sarwar as
Adah Sharma as
Yulian Shchukin as Russian Dancer
Trailers:
Jagga Jasoos Official Trailer


Details
Name:Jagga Jasoos (2017) - 2CD - DTH Rip[x264 - AAC3(5.1Ch)]
Description:
Jagga Jasoos (2017) - 2CD -
DTH Rip[x264 - AAC3(5.1Ch)]  
 


General
Format                                   : Matroska
Format version                           : Version 2
File size                                : 1.40 GiB
Duration                                 : 3 h 3 min

Video
ID                                       : 1
Format                                   : AVC
Format/Info                              : Advanced Video Codec
Format profile                           : High@L3.1
Format settings                          : CABAC / 16 Ref Frames
Format settings, CABAC                   : Yes
Format settings, RefFrames               : 16 frames
Codec ID                                 : V_MPEG4/ISO/AVC
Duration                                 : 3 h 3 min
Bit rate                                 : 966 kb/s
Width                                    : 720 pixels
Height                                   : 312 pixels
Display aspect ratio                     : 2.35:1
Frame rate mode                          : Constant
Frame rate                               : 25.000 FPS
Color space                              : YUV
Chroma subsampling                       : 4:2:0
Bit depth                                : 8 bits
Scan type                                : Progressive
Bits/(Pixel*Frame)                       : 0.172
Stream size                              : 1.23 GiB (88%)

Audio
ID                                       : 2
Format                                   : AAC
Format/Info                              : Advanced Audio Codec
Format profile                           : HE-AAC / LC
Format settings                          : Explicit
Codec ID                                 : A_AAC-2
Duration                                 : 3 h 3 min
Bit rate                                 : 128 kb/s
Channel(s)                               : 6 channels
Channel positions                        : Front: L C R, Side: L R, LFE
Sampling rate                            : 48.0 kHz
Stream size                              : 167 MiB (12%)

Thumbnail

Category:Movies > Bollywood
Lang:Hindi
Total Size:1.40 GB





Download-Links-300x90

|| Download This Movie Via Single Resumable Links Size: 1.40 GB ||

Direct-1 | Direct-2 | Direct-3 |

Watch Online Click Here

Share this article :

Post a Comment

 
Support : Website | Designed By | Katyayan
Copyright © 2017. Pre-Releaser Movies Club - All Rights Reserved
Website Created And Designed By Katyayan
Proudly powered by Blogger