Latest Movie :
Home » » Bhoomi (2017) - Pre DvDScr Rip - 700MB - Mpeg With Ads

Bhoomi (2017) - Pre DvDScr Rip - 700MB - Mpeg With Ads

{[['']]}

Poster


iMDB
Imdb Picture Title: Bhoomi
Year: 2017
Runtime: 104 minutes
Votes: 27
Rating: 8.4/10
Language: Hindi
Country: India
All Genres: Action, Crime, Drama, Thriller
Plot Outline: A revenge drama that centers on the relationship between a father and daughter.
Director: Omung Kumar
Writing By: Raaj Shaandilyaa,Sandeep Singh,
Produced By: Hanif Chunawala,Priya Gupta,Omung Kumar,Vanita Omung Kumar,Zafar Mehdi,Manish Singh,Sandeep Singh,
Music: Ismail Darbar
Cast:
Sunny Leone as Bar Performer
Sanjay Dutt as
Aditi Rao Hydari as Bhoomi
Sharad Kelkar as
Rahul Verma Rajput as
Shekhar Suman as Guide
Riddhi Sen as
Sidhant Gupta as
Puru Chibber as
Trailers:
Bhoomi Official Trailer


Details
Name:Bhoomi (2017) - Pre DvDScr Rip - 700 - Mpeg
Description:
 Bhoomi (2017) - Pre DvDScr Rip -
700 - Mpeg  
 



General
Format                                   : MPEG-PS
File size                                : 700 MiB
Duration                                 : 2 h 30 min

Video
ID                                       : 224 (0xE0)
Format                                   : MPEG Video
Format version                           : Version 2
Format profile                           : Main@Main
Format settings                          : CustomMatrix / BVOP
Format settings, BVOP                    : Yes
Format settings, Matrix                  : Custom
Format settings, GOP                     : Variable
Duration                                 : 2 h 30 min
Bit rate mode                            : Variable
Bit rate                                 : 511 kb/s
Width                                    : 352 pixels
Height                                   : 288 pixels
Display aspect ratio                     : 4:3
Frame rate                               : 25.000 FPS
Standard                                 : PAL
Color space                              : YUV
Chroma subsampling                       : 4:2:0
Bit depth                                : 8 bits
Scan type                                : Progressive
Stream size                              : 548 MiB (78%)

Audio
ID                                       : 192 (0xC0)
Format                                   : MPEG Audio
Format version                           : Version 1
Format profile                           : Layer 2
Duration                                 : 2 h 30 min
Bit rate mode                            : Constant
Bit rate                                 : 128 kb/s
Channel(s)                               : 2 channels
Sampling rate                            : 48.0 kHz
Compression mode                         : Lossy
Stream size                              : 138 MiB (20%)

Thumbnail




Category:Movies > Bollywood
Lang:Hindi
Total Size:699.91 MB



Download-Links-300x90

|| Download This Movie Via Single Resumable Links Size: 700 MB ||

Direct-1 | Direct-2 | Direct-3 |

Watch Online Click Here

Share this article :

Post a Comment

 
Support : Website | Designed By | Katyayan
Copyright © 2017. Pre-Releaser Movies Club - All Rights Reserved
Website Created And Designed By Katyayan
Proudly powered by Blogger