Latest Movie :
Home » » Baadshaho (2017) - PreRip - 850 MB - Mpeg With Ads

Baadshaho (2017) - PreRip - 850 MB - Mpeg With Ads

{[['']]}

Poster


iMDB
Imdb Picture Title: Baadshaho
Year: 2017
Runtime: 162 minutes
Votes: 45
Rating: 8.6/10
Language: Hindi
Country: India
All Genres: Action, Adventure, Drama, History, Thriller
Plot Outline: Baadshaho is inspired by real-life events during the Emergency and revolves around stolen gold, a thief (Ajay Devgn), an undercover cop (Vidyut Jammwal), a character inspired by Maharani ...
Director: Milan Luthria
Writing By: Rajat Arora,
Produced By: Hanif Chunawala,Bhushan Kumar,Krishan Kumar,Milan Luthria,Sumeet Mishra,Hussain Shaikh,Salim Shaikh,
Music: John Stewart Eduri
Plot:
Baadshaho is inspired by real-life events during the Emergency and revolves around stolen gold, a thief (Ajay Devgn), an undercover cop (Vidyut Jammwal), a character inspired by Maharani Gayatri Devi (Ileana D'Cruz) and an army officer (Emraan Hashmi) who is entrusted with protecting the country's treasure.
- Written by Khalid
Cast:
Sunny Leone as Dancer
Ajay Devgn as
Ileana D'Cruz as
Emraan Hashmi as
Esha Gupta as
Vidyut Jamwal as
Sanjay Mishra as
Denzil Smith as
Ravi Kale as
Lankesh Bhardwaj as Supdt. of Police -Meena


     

Details
Name:Baadshaho (2017) - PreRip - 850 MB - Mpeg
Description:
   Baadshaho (2017) - Pre DvDScr Rip -
850 MB - Mpeg
 





General
Format                                   : MPEG-PS
File size                                : 850 MiB
Duration                                 : 2 h 33 min

Video
ID                                       : 224 (0xE0)
Format                                   : MPEG Video
Format version                           : Version 2
Format profile                           : Main@Main
Format settings, BVOP                    : Yes
Format settings, Matrix                  : Custom
Format settings, GOP                     : Variable
Duration                                 : 2 h 33 min
Bit rate mode                            : Variable
Bit rate                                 : 700 kb/s
Width                                    : 352 pixels
Height                                   : 288 pixels
Display aspect ratio                     : 4:3
Frame rate                               : 25.000 FPS
Standard                                 : PAL
Color space                              : YUV
Chroma subsampling                       : 4:2:0
Bit depth                                : 8 bits
Scan type                                : Progressive
Stream size                              : 763 MiB (90%)

Audio
ID                                       : 192 (0xC0)
Format                                   : MPEG Audio
Format version                           : Version 1
Format profile                           : Layer 2
Duration                                 : 2 h 33 min
Bit rate mode                            : Constant
Bit rate                                 : 64.0 kb/s
Channel(s)                               : 2 channels
Sampling rate                            : 48.0 kHz
Compression mode                         : Lossy
Stream size                              : 70.2 MiB (8%)

Thumbnail



Category:Movies > Bollywood
Lang:Hindi
Total Size:850.09 MB



Download-Links-300x90

|| Download This Movie Via Single Resumable Links Size: 850 MB ||

Direct-1 Google Drive | Direct-2 | Direct-3 |

Watch Online Click Here

Share this article :

Post a Comment

 
Support : Website | Designed By | Katyayan
Copyright © 2017. Pre-Releaser Movies Club - All Rights Reserved
Website Created And Designed By Katyayan
Proudly powered by Blogger