Latest Movie :
Home » , » Annabelle Creation (2017) Dual Audio [Hindi(Cleaned)-English] 720p HC HDRip x264 AAC

Annabelle Creation (2017) Dual Audio [Hindi(Cleaned)-English] 720p HC HDRip x264 AAC

{[['']]}

Poster


iMDB
Imdb Picture Title: Annabelle: Creation
Year: 2017
Runtime: 109 minutes
Votes: 6749
Rating: 7.3/10
Language: English
Country: USA
All Genres: Horror, Mystery, Thriller
Plot Outline: Several years after the tragic death of their little girl, a dollmaker and his wife welcome a nun and several girls from a shuttered orphanage into their home, soon becoming the target of the dollmaker's possessed creation, Annabelle.
Tagline: You don't know the real story
Director: David F. Sandberg
Writing By: Gary Dauberman,
Produced By: Walter Hamada,Michelle Morrissey,Dave Neustadter,Hans Ritter,Peter Safran,James Wan,
Music: Benjamin Wallfisch
Plot:
Several years after the tragic death of their little girl, a dollmaker and his wife welcome a nun and several girls from a shuttered orphanage into their home, soon becoming the target of the dollmaker's possessed creation, Annabelle.

Cast:
Stephanie Sigman as Sister Charlotte
Talitha Bateman as Janice
Lulu Wilson as Linda
Miranda Otto as Esther Mullins
Anthony LaPaglia as Samuel Mullins
Alicia Vela-Bailey as Evil Mrs Mullins
Grace Fulton as Carol
Samara Lee as Bee Mullins
Philippa Coulthard as Nancy
Joseph Bishara as Annabelle Demon
Trailers:
Official Trailer #2
Official Trailer
Announcement Trailer


     

Details
Name:Annabelle Creation (2017) Dual Audio [Hindi(Cleaned)-English] 720p HC HDRip x264 AAC
Description:
 

Movie Info

General
Unique ID : 237646219543496096998177166609964644062 (0xB2C8FF3DF16465FB9F0168B2A8D8B6DE)
Complete name : Annabelle Creation 2017 Dual Audio [Hindi(Cleaned)-English] 720p HC HDRip x264 AAC
Format : Matroska
Format version : Version 4 / Version 2
File size : 959 MiB
Duration : 1 h 49 min
Overall bit rate : 1 225 kb/s
Movie name : Annabelle Creation 2017 720p HC HDRip Dual Audio Hindi(Cleaned)+English x264 AAC
Encoded date : UTC 2017-09-15 07:21:22
Writing application : mkvmerge v10.0.0 ('To Drown In You') 64bit
Writing library : libebml v1.3.4 + libmatroska v1.4.5

Video
ID : 1
Format : AVC
Format/Info : Advanced Video Codec
Format profile : High@L4.1
Format settings, CABAC : Yes
Format settings, ReFrames : 8 frames
Codec ID : V_MPEG4/ISO/AVC
Duration : 1 h 49 min
Bit rate : 999 kb/s
Width : 1 280 pixels
Height : 544 pixels
Display aspect ratio : 2.35:1
Frame rate mode : Constant
Frame rate : 23.976 (23976/1000) FPS
Color space : YUV
Chroma subsampling : 4:2:0
Bit depth : 8 bits
Scan type : Progressive
Bits/(Pixel*Frame) : 0.060
Default : Yes
Forced : No
Color range : Limited
Color primaries : BT.709
Transfer characteristics : BT.709
Matrix coefficients : BT.709

Audio #1
ID : 2
Format : AAC
Format/Info : Advanced Audio Codec
Format profile : LC
Codec ID : A_AAC
Duration : 1 h 49 min
Bit rate : 128 kb/s
Channel(s) : 2 channels
Channel positions : Front: L R
Sampling rate : 48.0 kHz
Frame rate : 46.875 FPS (1024 spf)
Compression mode : Lossy
Delay relative to video : -156 ms
Stream size : 100 MiB (10%)
Language : Hindi
Default : Yes
Forced : No

Audio #2
ID : 3
Format : AAC
Format/Info : Advanced Audio Codec
Format profile : HE-AAC / LC
Codec ID : A_AAC
Duration : 1 h 49 min
Bit rate : 96.0 kb/s
Channel(s) : 2 channels
Channel positions : Front: L R
Sampling rate : 48.0 kHz / 24.0 kHz
Frame rate : 23.438 FPS (1024 spf)
Compression mode : Lossy
Delay relative to video : -105 ms
Stream size : 75.2 MiB (8%)
Language : English
Default : No
Forced : No

       
Category:Movies > Hollywood Dub
Lang:Hindi
Total Size:959.28 MB



Download-Links-300x90

|| Download This Movie Via Single Resumable Links Size: 959 MB ||

Direct-1 Google Drive | Direct-2 | Direct-3 |

Watch Online Click Here

Share this article :

Post a Comment

 
Support : Website | Designed By | Katyayan
Copyright © 2017. Pre-Releaser Movies Club - All Rights Reserved
Website Created And Designed By Katyayan
Proudly powered by Blogger