Latest Movie :
Home » » Toilet - Ek Prem Katha (2017) - Pre-DvDScr Rip - 850 With Ads

Toilet - Ek Prem Katha (2017) - Pre-DvDScr Rip - 850 With Ads

{[['']]}


Poster


iMDB
Imdb Picture Title: Toilet - Ek Prem Katha
Year: 2017
Language: Hindi
Country: India
All Genres: Comedy, Drama
Plot Outline: The movie is about PM Narendra Modi's 'Swacha Bharat Abhijan'. Its a comedy genre film based on the unhygienic condition in rural areas of India.
Tagline: What happens when two people in love cannot be together because of the lack of a toilet in the house?
Director: Shree Narayan Singh
Writing By: Garima,Siddharth,
Produced By: Prerna Arora,Shital Bhatia,Arjun N. Kapoor,Karan Shah,
Plot:
The movie is about PM Narendra Modi's 'Swacha Bharat Abhijan'. Its a comedy genre film based on the unhygienic condition in rural areas of India.

Cast:
Akshay Kumar as Keshav
Anupam Kher as Kakka
Bhumi Pednekar as Jaya
Jaspal Sharma as Dabloo,keshav's friend
Sana Khaan as Keshav's Girl Friend
Vijay Kumar Dogra as Shiv Shankar , Keshav's friend
Divyendu Sharma as Keshav's Friend
Mukesh Bhatt as Rastogi
Satyajeet Dubey as
Vikas Pal as Hari, keshav's friend


     

Details
Name:Toilet - Ek Prem Katha (2017) - PreRip - 850 - Mpeg
Description:
Toilet - Ek Prem Katha (2017) - PRE Rip -
850 - Mpeg
 





General
Format                                   : MPEG-PS
File size                                : 850 MiB
Duration                                 : 2 h 48 min

Video
ID                                       : 224 (0xE0)
Format                                   : MPEG Video
Format version                           : Version 2
Format profile                           : Main@Main
Format settings, BVOP                    : Yes
Format settings, Matrix                  : Custom
Format settings, GOP                     : Variable
Duration                                 : 2 h 48 min
Bit rate mode                            : Variable
Bit rate                                 : 568 kb/s
Width                                    : 352 pixels
Height                                   : 288 pixels
Display aspect ratio                     : 4:3
Frame rate                               : 25.000 FPS
Standard                                 : PAL
Color space                              : YUV
Chroma subsampling                       : 4:2:0
Bit depth                                : 8 bits
Scan type                                : Progressive
Stream size                              : 679 MiB (80%)

Audio
ID                                       : 192 (0xC0)
Format                                   : MPEG Audio
Format version                           : Version 1
Format profile                           : Layer 2
Duration                                 : 2 h 48 min
Bit rate mode                            : Constant
Bit rate                                 : 128 kb/s
Channel(s)                               : 2 channels
Sampling rate                            : 48.0 kHz
Compression mode                         : Lossy
Stream size                              : 154 MiB (18%)


Thumbnail


Category:Movies > Bollywood
Lang:Hindi
Total Size:850.35 MB





Download-Links-300x90

|| Download This Movie Via Single Resumable Links Size: 850 MB ||

Direct-1 Google Drive | Direct-2 | Direct-3 |

Watch Online Click Below

Share this article :

Post a Comment

 
Support : Website | Designed By | Katyayan
Copyright © 2017. Pre-Releaser Movies Club - All Rights Reserved
Website Created And Designed By Katyayan
Proudly powered by Blogger