Latest Movie :
Home » » Babumoshai Bandookbaaz (2017) - Pre DvDScr Rip - 700 MB - Mpeg With Ads

Babumoshai Bandookbaaz (2017) - Pre DvDScr Rip - 700 MB - Mpeg With Ads

{[['']]}

Poster


iMDB
Imdb Picture Title: Babumoshai Bandookbaaz
Year: 2017
Runtime: 122 minutes
Votes: 30
Rating: 8.5/10
Language: Hindi, Bengali
Country: India
All Genres: Action, Comedy, Crime, Thriller
Plot Outline: The movie, filled with humor and romance, is a quirky ride into the life and times of a small time contract killer, Babu, played by Nawazuddin Siddiqui. The film spins around his love, his friends, his rivalries and his revenge.
Director: Kushan Nandy
Writing By: Ghalib Asadbhopali,
Produced By: Sanjay Inamdar,Ashmith Kunder,Kushan Nandy,Kiran Shroff,
Plot:
The movie, filled with humor and romance, is a quirky ride into the life and times of a small time contract killer, Babu, played by Nawazuddin Siddiqui. The film spins around his love, his friends, his rivalries and his revenge.
- Written by vhavnal
Cast:
Nawazuddin Siddiqui as Babumoshai Bandookbaaz
Bidita Bag as
Shradha Das as
Divya Dutta as
Murli Sharma as
Sanjay Inamdar as Premchand
Akash as
Sachin Chaubey as
Anil George as
Jatin Goswami as


     

Details
Name:Babumoshai Bandookbaaz (2017) - Pre DvDScr Rip - 700 MB - Mpeg
Description:
 Babumoshai Bandookbaaz (2017) - Pre DvDScr Rip -
700 MB - Mpeg  
 




General
Format                                   : MPEG-PS
File size                                : 700 MiB
Duration                                 : 2 h 18 min

Video
ID                                       : 224 (0xE0)
Format                                   : MPEG Video
Format version                           : Version 2
Format profile                           : Main@Main
Format settings, BVOP                    : Yes
Format settings, Matrix                  : Custom
Format settings, GOP                     : Variable
Duration                                 : 2 h 18 min
Bit rate mode                            : Variable
Bit rate                                 : 633 kb/s
Width                                    : 352 pixels
Height                                   : 288 pixels
Display aspect ratio                     : 4:3
Frame rate                               : 25.000 FPS
Standard                                 : PAL
Color space                              : YUV
Chroma subsampling                       : 4:2:0
Bit depth                                : 8 bits
Scan type                                : Progressive
Stream size                              : 624 MiB (89%)

Audio
ID                                       : 192 (0xC0)
Format                                   : MPEG Audio
Format version                           : Version 1
Format profile                           : Layer 2
Duration                                 : 2 h 18 min
Bit rate mode                            : Constant
Bit rate                                 : 64.0 kb/s
Channel(s)                               : 2 channels
Sampling rate                            : 48.0 kHz
Compression mode                         : Lossy
Stream size                              : 63.5 MiB (9%)

Thumbnail



Category:Movies > Bollywood
Lang:Hindi
Total Size:700.96 MB





Download-Links-300x90

|| Download This Movie Via Single Resumable Links Size: 701 MB ||

Direct-1 Google Drive | Direct-2 | Direct-3 |

Watch Online Click Here

Share this article :

Post a Comment

 
Support : Website | Designed By | Katyayan
Copyright © 2017. Pre-Releaser Movies Club - All Rights Reserved
Website Created And Designed By Katyayan
Proudly powered by Blogger