Latest Movie :
Home » , » Spider-Man Homecoming (2017) Hindi version - 2CD - DvDScr Rip[Mp4 - AC3(2Ch)] With ADs

Spider-Man Homecoming (2017) Hindi version - 2CD - DvDScr Rip[Mp4 - AC3(2Ch)] With ADs

{[['']]}


Poster


iMDB
Imdb Picture Title: Spider-Man: Homecoming
Year: 2017
Runtime: 133 minutes
Votes: 14742
Rating: 8.3/10
Language: English
Country: USA
All Genres: Action, Adventure, Sci-Fi
Plot Outline: Several months after the events of Captain America: Civil War, Peter Parker, with the help of his mentor Tony Stark, tries to balance his life as an ordinary high school student in Queens, New York City while fighting crime as his superhero alter ego Spider-Man as a new threat, the Vulture, emerges.
Director: Jon Watts
Writing By: Jonathan Goldstein,John Francis Daley,Jon Watts,Christopher Ford,Chris McKenna,Erik Sommers,Jonathan Goldstein,John Francis Daley,Stan Lee,Steve Ditko,
Produced By: Victoria Alonso,Avi Arad,Mitchell Bell,Eric Hauserman Carroll,Louis D'Esposito,Kevin Feige,Jeremy Latcham,Stan Lee,Rachel O'Connor,Amy Pascal,Matt Tolmach,Patricia Whitcher,
Music: Michael Giacchino
Plot:
Thrilled by his experience with the Avengers, Peter returns home, where he lives with his Aunt May, under the watchful eye of his new mentor Tony Stark, Peter tries to fall back into his normal daily routine - distracted by thoughts of proving himself to be more than just your friendly neighborhood Spider-Man - but when the Vulture emerges as a new villain, everything that Peter holds most important will be threatened.
- Written by Benett Sullivan
Peter Parker is exploring the concept of becoming an Avenger. Tony Stark tries to help Peter, but he does not have total faith in Spider-Man to become a hero. And so Peter Parker, aka Spider-Man sets off to prove he is worthy to become an Avenger!
- Written by David Norton
A young Peter Parker/Spider-Man begins to navigate his newfound identity as the web-slinging super hero Spider-Man. Thrilled by his experience with the Avengers, Peter returns home, where he lives with his Aunt May, under the watchful eye of his new mentor Tony Stark. Peter tries to fall back into his normal daily routine - distracted by thoughts of proving himself to be more than just your friendly neighborhood Spider-Man - but when the Vulture emerges as a new villain, everything that Peter holds most important will be threatened.
- Written by Flick Direct
Several months after the events of Captain America: Civil War, Peter Parker, with the help of his mentor Tony Stark, tries to balance his life as an ordinary high school student in Queens, New York City while fighting crime as his superhero alter ego Spider-Man as a new threat, the Vulture, emerges.

Cast:
Tom Holland as Peter Parker / Spider-Man
Michael Keaton as Adrian Toomes / Vulture
Robert Downey Jr. as Tony Stark / Iron Man
Marisa Tomei as May Parker
Jon Favreau as Happy Hogan
Gwyneth Paltrow as Pepper Potts
Zendaya as Michelle
Donald Glover as Aaron Davis
Jacob Batalon as Ned
Laura Harrier as Liz
Trailers:
Trailer With Commentary
Spiderman Homecoming
IMDb Exclusive
International Trailer #3
Trailer #3
Trailer #2
Trailer #1


Details
Name:Spider-Man Homecoming (2017) Hindi version - 2CD - DvDScr Rip[Mp4 - AC3(2Ch)]
Description:
  Spider-Man Homecoming (2017) Hindi version -
2CD - DvDScr Rip[Mp4 - AC3(2Ch)]  
 


General
Format                                   : MPEG-4
Format profile                           : Base Media
Codec ID                                 : isom (isom)
File size                                : 1.40 GiB
Duration                                 : 2 h 25 min

Video
ID                                       : 1
Format                                   : AVC
Format/Info                              : Advanced Video Codec
Format profile                           : High@L3
Format settings, CABAC                   : Yes
Format settings, RefFrames               : 4 frames
Codec ID                                 : avc1
Codec ID/Info                            : Advanced Video Coding
Duration                                 : 2 h 25 min
Bit rate                                 : 1 253 kb/s
Maximum bit rate                         : 3 777 kb/s
Width                                    : 720 pixels
Height                                   : 384 pixels
Display aspect ratio                     : 1.85:1
Frame rate mode                          : Constant
Frame rate                               : 25.000 FPS
Color space                              : YUV
Chroma subsampling                       : 4:2:0
Bit depth                                : 8 bits
Scan type                                : Progressive
Bits/(Pixel*Frame)                       : 0.181
Stream size                              : 1.27 GiB (91%)

Audio
ID                                       : 2
Format                                   : AC-3
Format/Info                              : Audio Coding 3
Format settings, Endianness              : Big
Codec ID                                 : ac-3
Duration                                 : 2 h 25 min
Bit rate mode                            : Constant
Bit rate                                 : 128 kb/s
Maximum bit rate                         : 135 kb/s
Channel(s)                               : 2 channels
Channel positions                        : Front: L R
Sampling rate                            : 48.0 kHz
Stream size                              : 133 MiB (9%)

Thumbnail





Category:Movies > Hollywood Dub
Lang:Hindi
Total Size:1.40 GB




Download Links

|| Download This Movie Via Single Resumable Links Size: 1.40 GB ||

Direct-1 Google Drive | Direct-2 |











Share this article :

Post a Comment

 
Support : Website | Designed By | Katyayan
Copyright © 2017. Pre-Releaser Movies Club - All Rights Reserved
Website Created And Designed By Katyayan
Proudly powered by Blogger