Latest Movie :
Home » , » Munna Michael (2017) - DvDScr Rip - 850 MB With Ads

Munna Michael (2017) - DvDScr Rip - 850 MB With Ads

{[['']]}


Poster


iMDB
Imdb Picture Title: Munna Michael
Year: 2017
Language: Hindi
Country: India
All Genres: Action, Drama, Musical, Romance
Plot Outline: A young man, tries to follow the footsteps of his idol, The King of Pop, Michael Jackson.
Director: Sabir Khan
Writing By: Vimi Datta,
Produced By: Sunil Lulla,Vikram Rajani,Roshan Singh,
Plot:
Munna is a fan of dancing sensation Michael Jackson since his childhood to make money he dances on streets. He comes across Dev who gives him an opportunity to dance in a national dance competition on television.Where he is known as Munna Michael the competition goes well since start. But while its coming to an end with only 6 contenders left Munna discovers a secret about the competition.
- Written by Alex Mjacko
A young man, tries to follow the footsteps of his idol, The King of Pop, Michael Jackson.

Cast:
Tiger Shroff as Munna Michael
Nawazuddin Siddiqui as
Ameesha Patel as Judge
Chitrangda Singh as Judge
Farah Khan as Judge
Jiiva as
Vivaan Shah as Yamir
Chetna Pande as Pooja
Nidhhi Agerwal as Dolly
Anaika Soti as Nikki
Trailers:
Munna Michael Official Trailer


Details
Name:Munna Michael (2017) - DvDScr Rip - 850 MB .mpg
Description:
Munna Michael (2017) - DvDScr Rip -
850 MB - Mpeg
 




Format                                   : MPEG-PS
File size                                : 850 MiB
Duration                                 : 2 h 39 min

Video
ID                                       : 224 (0xE0)
Format                                   : MPEG Video
Format version                           : Version 2
Format profile                           : Main@Main
Format settings, BVOP                    : Yes
Format settings, Matrix                  : Custom
Format settings, GOP                     : Variable
Duration                                 : 2 h 39 min
Bit rate mode                            : Variable
Bit rate                                 : 669 kb/s
Width                                    : 352 pixels
Height                                   : 288 pixels
Display aspect ratio                     : 4:3
Frame rate                               : 25.000 FPS
Standard                                 : PAL
Color space                              : YUV
Chroma subsampling                       : 4:2:0
Bit depth                                : 8 bits
Scan type                                : Progressive
Stream size                              : 760 MiB (89%)

Audio
ID                                       : 192 (0xC0)
Format                                   : MPEG Audio
Format version                           : Version 1
Format profile                           : Layer 2
Duration                                 : 2 h 39 min
Bit rate mode                            : Constant
Bit rate                                 : 64.0 kb/s
Channel(s)                               : 2 channels
Sampling rate                            : 48.0 kHz
Compression mode                         : Lossy
Stream size                              : 73.2 MiB (9%)

Thumbnail


Category:Movies > Bollywood
Lang:Hindi
Total Size:850.47 MB



Download-Links-300x90

|| Download This Movie Via Single Resumable Links Size: 850 MB ||

Direct-1 Google Drive | Direct-2 | Direct-3 |







Share this article :

Post a Comment

 
Support : Website | Designed By | Katyayan
Copyright © 2017. Pre-Releaser Movies Club - All Rights Reserved
Website Created And Designed By Katyayan
Proudly powered by Blogger