Latest Movie :
Home » , » Munna Michael (2017) - 2CD - DvDScr Rip[Mp4 - AC3(2Ch)] With ADs

Munna Michael (2017) - 2CD - DvDScr Rip[Mp4 - AC3(2Ch)] With ADs

{[['']]}


Poster


iMDB
Imdb Picture Title: Munna Michael
Year: 2017
Language: Hindi
Country: India
All Genres: Action, Drama, Musical, Romance
Plot Outline: A young man, tries to follow the footsteps of his idol, The King of Pop, Michael Jackson.
Director: Sabir Khan
Writing By: Vimi Datta,
Produced By: Sunil Lulla,Vikram Rajani,Roshan Singh,
Plot:
Munna is a fan of dancing sensation Michael Jackson since his childhood to make money he dances on streets. He comes across Dev who gives him an opportunity to dance in a national dance competition on television.Where he is known as Munna Michael the competition goes well since start. But while its coming to an end with only 6 contenders left Munna discovers a secret about the competition.
- Written by Alex Mjacko
A young man, tries to follow the footsteps of his idol, The King of Pop, Michael Jackson.

Cast:
Tiger Shroff as Munna Michael
Nawazuddin Siddiqui as
Ameesha Patel as Judge
Chitrangda Singh as Judge
Farah Khan as Judge
Jiiva as
Vivaan Shah as Yamir
Chetna Pande as Pooja
Nidhhi Agerwal as Dolly
Anaika Soti as Nikki
Trailers:
Munna Michael Official Trailer


Details
Name:Munna Michael (2017) - 2CD - DvDScr Rip[Mp4 - AC3(2Ch)]
Description:
Munna Michael (2017) - 2CD -
DvDScr Rip[Mp4 - AC3(2Ch)]
 




General
Format                                   : MPEG-4
Format profile                           : Base Media
Codec ID                                 : isom (isom)
File size                                : 1.40 GiB
Duration                                 : 2 h 39 min

Video
ID                                       : 1
Format                                   : AVC
Format/Info                              : Advanced Video Codec
Format profile                           : High@L3
Format settings, CABAC                   : Yes
Format settings, RefFrames               : 4 frames
Codec ID                                 : avc1
Codec ID/Info                            : Advanced Video Coding
Duration                                 : 2 h 39 min
Bit rate                                 : 1 127 kb/s
Maximum bit rate                         : 4 186 kb/s
Width                                    : 720 pixels
Height                                   : 328 pixels
Display aspect ratio                     : 2.2:1
Frame rate mode                          : Constant
Frame rate                               : 25.000 FPS
Color space                              : YUV
Chroma subsampling                       : 4:2:0
Bit depth                                : 8 bits
Scan type                                : Progressive
Bits/(Pixel*Frame)                       : 0.191
Stream size                              : 1.26 GiB (90%)

Audio
ID                                       : 2
Format                                   : AC-3
Format/Info                              : Audio Coding 3
Format settings, Endianness              : Big
Codec ID                                 : ac-3
Duration                                 : 2 h 39 min
Bit rate mode                            : Constant
Bit rate                                 : 128 kb/s
Maximum bit rate                         : 135 kb/s
Channel(s)                               : 2 channels
Channel positions                        : Front: L R
Sampling rate                            : 48.0 kHz
Stream size                              : 146 MiB (10%)

Thumbnail



Category:Movies > Bollywood
Lang:Hindi
Total Size:1.40 GB





Download-Links-300x90

|| Download This Movie Via Single Resumable Links Size: 1.4 GB ||

Direct-1 Google Drive | Direct-2 | Direct-3 |





Share this article :

Post a Comment

 
Support : Website | Designed By | Katyayan
Copyright © 2017. Pre-Releaser Movies Club - All Rights Reserved
Website Created And Designed By Katyayan
Proudly powered by Blogger