Latest Movie :
Home » , » Mubarakan (2017) - DvDScr Rip - 850 MB - Mpeg

Mubarakan (2017) - DvDScr Rip - 850 MB - Mpeg

{[['']]}


Poster


iMDB
Imdb Picture Title: Mubarakan
Year: 2017
Runtime: 156 minutes
Votes: 69
Rating: 5.0/10
Language: Hindi
Country: India
All Genres: Comedy, Family, Romance
Plot Outline: Karan and Charan are identical twin brothers but their personalities are polar opposites. Karan has grown up in London while Charan was raised in Punjab. Karan is street-smart, calculating ...
Director: Anees Bazmee
Writing By: Rupinder Chahal,Rajesh Chawla,Balwinder Singh Janjua,Balwinder Singh Janjua,
Produced By: Balwinder Singh Janjua,Firuzi Khan,Murad Khetani,Niraj Kothari,Navmeet Singh,Ashwin Varde,
Plot:
Karan and Charan are identical twin brothers but their personalities are polar opposites. Karan has grown up in London while Charan was raised in Punjab. Karan is street-smart, calculating and flamboyant while Charan is simple, idealistic and honest in his approach. Karan is in love with Sweety while Charan is in a relationship with Nafisa. Karan's family fixes Karan's wedding with Binkle, daughter of one of the wealthiest families in London. He convinces his family to fix the match with Charan instead. The respective families are happy with this development except Charan because he wants to marry Nafisa.
- Written by Anonymous
Cast:
Anil Kapoor as Kartar Singh
Arjun Kapoor as Charanveer Singh / Karanveer Singh
Ileana D'Cruz as Sweety
Athiya Shetty as Anjali
Neha Sharma as Nafisa Ali Khan
Vineet Kumar Singh as
Pavan Malhotra as
Ratna Pathak as
Karan Kundra as
Anil Mange as
Trailers:
Official 'Mubarakan' Trailer


Details
Name:Mubarakan (2017) - DvDScr Rip - 848 MB - Mpeg
Description:
Mubarakan (2017) - DvDScr Rip -
850 MB - Mpeg
 




Mubarakan (2017) Untouched Desi PreDvD NTSC [Team ExDR Exclusive]

Format                                   : MPEG-PS
File size                                : 748 MiB
Duration                                 : 2h 27mn
Overall bit rate mode                    : Variable
Overall bit rate                         : 709 Kbps
Writing library                          : encoded by TMPGEnc Video Mastering Works 5 Version. 5.0.5.32

Video
ID                                       : 224 (0xE0)
Format                                   : MPEG Video
Format version                           : Version 2
Format profile                           : Main@Main
Format settings, BVOP                    : Yes
Format settings, Matrix                  : Custom
Format settings, GOP                     : Variable
Duration                                 : 2h 27mn
Bit rate mode                            : Variable
Bit rate                                 : 599 Kbps
Maximum bit rate                         : 8 000 Kbps
Width                                    : 352 pixels
Height                                   : 288 pixels
Display aspect ratio                     : 4:3
Frame rate                               : 25.000 fps
Standard                                 : NTSC
Color space                              : YUV
Chroma subsampling                       : 4:2:0
Bit depth                                : 8 bits
Scan type                                : Progressive
Compression mode                         : Lossy
Bits/(Pixel*Frame)                       : 0.236
Time code of first frame                 : 00:00:00:00
Time code source                         : Group of pictures header
Stream size                              : 632 MiB (84%)
Source encoded stream size               : encoded by TMPGEnc Video Mastering Works 5 Version. 5.0.5.32
Writing library                          : TMPGEnc Video Mastering Works 5 Version. 5.0.5.32

Audio
ID                                       : 192 (0xC0)
Format                                   : MPEG Audio
Format version                           : Version 1
Format profile                           : Layer 2
Duration                                 : 2h 27mn
Bit rate mode                            : Constant
Bit rate                                 : 96.0 Kbps
Channel(s)                               : 2 channels
Sampling rate                            : 48.0 KHz
Compression mode                         : Lossy
Stream size                              : 101 MiB (14%)

Thumbnail




               
               
               
               
               
               
               
               
               

Category:Movies > Bollywood
Lang:Hindi
Total Size:850.54 MB



Download-Links-300x90

|| Download This Movie Via Single Resumable Links Size: 848 MB ||

Direct-1 Google Drive | Direct-2 | Direct-3 |

Direct-4  | Direct-5 | Direct-6 |


Watch Online Click Below

Share this article :

Post a Comment

 
Support : Website | Designed By | Katyayan
Copyright © 2017. Pre-Releaser Movies Club - All Rights Reserved
Website Created And Designed By Katyayan
Proudly powered by Blogger