Latest Movie :
Home » , » Mom (2017) Hindi DVDScr x264 400MB

Mom (2017) Hindi DVDScr x264 400MB

{[['']]}

Poster
1fecdd0a20798fcdafb863dd05dad295.jpg


iMDB
Imdb Picture Title: Mom
Year: 2017
Runtime: 146 minutes
Votes: 140
Rating: 7.8/10
Language: Hindi
Country: India
All Genres: Drama, Thriller
Plot Outline: A tale of how far a mother will go for the sake of her children.
Director: Ravi Udyawar
Writing By: Girish Kohli,
Produced By: Boney Kapoor,Rishikesh Laxmikant,Jairaj Parayan,
Music: A.R. Rahman
Plot:
A tale of how far a mother will go for the sake of her children.

Cast:
Sridevi as
Akshaye Khanna as
Adnan Siddiqui as
Sajal Ali as
Abhimanyu Singh as
Pitobash as Baburam
Nawazuddin Siddiqui as Cameo appearance
Yuvraj Singh Bajwa as Cop


Details
Name:Mom (2017) 800MBRip - DesiPDVD - x264 - AAC - DUS 9th Anniversary
Description:


Mom (2017) 800MBRip - DesiPDVD - x264 - AAC - DUS 9th Anniversary






Source : DUS Ka Warehouse - Thank you Sher Bhai smile1.gif

Format                      : Matroska
Format version              : Version 2
File size                   : 806 MiB
Duration                    : 2 h 17 min
Overall bit rate            : 818 kb/s
Encoded date                : UTC 2017-07-07 19:35:44
Writing application         : mkvmerge v7.0.0 ('Where We Going') 32bit built on Jun  9 2014 15:08:34
Writing library             : libebml v1.3.0 + libmatroska v1.4.1

Video
ID                          : 1
Format                      : AVC
Format/Info                 : Advanced Video Codec
Format profile              : High@L2.1
Format settings, CABAC      : Yes
Format settings, ReFrames   : 4 frames
Codec ID                    : V_MPEG4/ISO/AVC
Duration                    : 2 h 17 min
Bit rate                    : 750 kb/s
Width                       : 640 pixels
Height                      : 272 pixels
Display aspect ratio        : 2.35:1
Frame rate mode             : Constant
Frame rate                  : 25.000 FPS
Color space                 : YUV
Chroma subsampling          : 4:2:0
Bit depth                   : 8 bits
Scan type                   : Progressive
Bits/(Pixel*Frame)          : 0.172
Stream size                 : 741 MiB (92%)

Audio
ID                          : 2
Format                      : AAC
Format/Info                 : Advanced Audio Codec
Format profile              : HE-AAC / LC
Codec ID                    : A_AAC
Duration                    : 2 h 17 min
Bit rate                    : 64.0 kb/s
Channel(s)                  : 2 channels
Channel positions           : Front: L R
Sampling rate               : 44.1 kHz / 22.05 kHz
Frame rate                  : 21.533 FPS (1024 spf)
Compression mode            : Lossy
Delay relative to video     : 33 ms
Stream size                 : 63.0 MiB (8%)
Default                     : Yes
Forced                      : No

1fecdd0a20798fcdafb863dd05dad295.jpg
a4894e5f7946338e92a23c50b74a30cd.th.pnge5d0f65d1a2a94d0bb7693cbeaede24b.th.png56805fc616b09bfcdc41732d6af4cf7d.th.png
7258f5eeb328eb1c9856adc7ef1f6496.th.png0c1c4c3ab7f2b9ce0410c8221f761122.th.png10984fed912cae753478aa24aa838ba2.th.png

 






Category:Movies > Bollywood
Lang:Hindi
Total Size:421.35 MB



Download Links

|| Download This Movie Via Single Resumable Links Size: 421 MB ||

Direct-1 Google Drive | Direct-2 |










Share this article :

Post a Comment

 
Support : Website | Designed By | Katyayan
Copyright © 2017. Pre-Releaser Movies Club - All Rights Reserved
Website Created And Designed By Katyayan
Proudly powered by Blogger