Latest Movie :
Home » , » Mom (2017) 720p DVDSCR x264 AAC HINDI 900Mb

Mom (2017) 720p DVDSCR x264 AAC HINDI 900Mb

{[['']]}


Poster


iMDB
Imdb Picture Title: Mom
Year: 2017
Runtime: 146 minutes
Votes: 140
Rating: 7.8/10
Language: Hindi
Country: India
All Genres: Drama, Thriller
Plot Outline: A tale of how far a mother will go for the sake of her children.
Director: Ravi Udyawar
Writing By: Girish Kohli,
Produced By: Boney Kapoor,Rishikesh Laxmikant,Jairaj Parayan,
Music: A.R. Rahman
Plot:
A tale of how far a mother will go for the sake of her children.

Cast:
Sridevi as
Akshaye Khanna as
Adnan Siddiqui as
Sajal Ali as
Abhimanyu Singh as
Pitobash as Baburam
Nawazuddin Siddiqui as Cameo appearance
Yuvraj Singh Bajwa as Cop


Details
Name:Mom (2017) 720p DVDSCR x264 AAC HINDI 900Mb [BisHD]
Description:



Mom (2017) 720p DVDSCR x264 AAC HINDI 900Mb [BisHD]



Plot:-
A tale of how far a mother will go for the sake of her children.
Director: Ravi Udyawar
Writer: Girish Kohli
Stars: Sridevi, Akshaye Khanna, Adnan Siddiqui
IMDB: http://www.imdb.com/title/tt5690142/


Quote:
Format                                   : MPEG-4
Format profile                           : Base Media
Codec ID                                 : isom (isom/iso2/avc1/mp41)
File size                                : 895 MiB
Duration                                 : 2 h 17 min
Overall bit rate                         : 909 kb/s

Video
ID                                       : 1
Format                                   : AVC
Format/Info                              : Advanced Video Codec
Format profile                           : High@L3.1
Format settings, CABAC                   : Yes
Format settings, RefFrames               : 4 frames
Codec ID                                 : avc1
Codec ID/Info                            : Advanced Video Coding
Duration                                 : 2 h 17 min
Bit rate                                 : 775 kb/s
Width                                    : 960 pixels
Height                                   : 720 pixels
Display aspect ratio                     : 4:3
Frame rate mode                          : Constant
Frame rate                               : 25.000 FPS
Color space                              : YUV
Chroma subsampling                       : 4:2:0
Bit depth                                : 8 bits
Scan type                                : Progressive
Bits/(Pixel*Frame)                       : 0.045
Stream size                              : 764 MiB (85%)
Writing library                          : x264 core 142 r24 ea0ca51

Audio
ID                                       : 2
Format                                   : AAC
Format/Info                              : Advanced Audio Codec
Format profile                           : LC
Codec ID                                 : 40
Duration                                 : 2 h 17 min
Duration_LastFrame                       : -15 ms
Bit rate mode                            : Constant
Bit rate                                 : 128 kb/s
Channel(s)                               : 2 channels
Channel positions                        : Front: L R
Sampling rate                            : 48.0 kHz
Frame rate                               : 46.875 FPS (1024 SPF)
Compression mode                         : Lossy
Stream size                              : 126 MiB (14%)
Default                                  : Yes
Alternate group                          : 1


Screenshots:- Click to Enlarge:-





Category:Movies > Bollywood
Lang:Hindi
Total Size:895.46 MB





Download Links

|| Download This Movie Via Single Resumable Links Size: 895 MB ||

Direct-1 Google Drive | Direct-2 | Direct-3








Share this article :

Post a Comment

 
Support : Website | Designed By | Katyayan
Copyright © 2017. Pre-Releaser Movies Club - All Rights Reserved
Website Created And Designed By Katyayan
Proudly powered by Blogger