Latest Movie :
Home » , » Machine (2017) Untouched 480p HDTV x264

Machine (2017) Untouched 480p HDTV x264

{[['']]}
~ Machine ~

** 480p / WEBHD / H264 / AAC2.0 **








Code:

General
Complete name : Machine.2017.Untouched.HDTV.x264-DDR.mp4
Format : MPEG-4
Format profile : Base Media
Codec ID : isom (isom/iso2/avc1/mp41)
File size : 813 MiB
Duration : 2 h 5 min
Overall bit rate mode : Variable
Overall bit rate : 906 kb/s
Writing application : Lavf57.75.100

Video
ID : 1
Format : AVC
Format/Info : Advanced Video Codec
Format profile : Main@L3.1
Format settings, CABAC : Yes
Format settings, ReFrames : 4 frames
Codec ID : avc1
Codec ID/Info : Advanced Video Coding
Duration : 2 h 5 min
Bit rate mode : Constant
Bit rate : 760 kb/s
Width : 854 pixels
Height : 480 pixels
Display aspect ratio : 16:9
Original display aspect rat : 16:9
Frame rate mode : Constant
Frame rate : 25.000 FPS
Color space : YUV
Chroma subsampling : 4:2:0
Bit depth : 8 bits
Scan type : Progressive
Bits/(Pixel*Frame) : 0.074
Stream size : 682 MiB (84%)
Color range : Limited
Color primaries : BT.709
Transfer characteristics : BT.709
Matrix coefficients : BT.709

Audio
ID : 2
Format : AAC
Format/Info : Advanced Audio Codec
Format profile : LC
Codec ID : 40
Duration : 2 h 5 min
Bit rate mode : Variable
Bit rate : 140 kb/s
Maximum bit rate : 142 kb/s
Channel(s) : 2 channels
Channel positions : Front: L R
Sampling rate : 48.0 kHz
Frame rate : 46.875 FPS (1024 spf)
Compression mode : Lossy
Stream size : 125 MiB (15%)
Default : Yes

























Sample
Download-Links-300x90

|| Download This Movie Via Single Resumable Links Size: 812 MB ||

Direct-1 Google Drive | Direct-2 | Direct-3 |

Watch Online Click Below


Share this article :

Post a Comment

 
Support : Website | Designed By | Katyayan
Copyright © 2017. Pre-Releaser Movies Club - All Rights Reserved
Website Created And Designed By Katyayan
Proudly powered by Blogger