Latest Movie :
Home » , » Jagga Jasoos 2017 Hindi DvDSCR x264

Jagga Jasoos 2017 Hindi DvDSCR x264

{[['']]}


Poster
No poster


Details
Name:Jagga Jasoos 2017 Hindi DvDSCR x264 GOPISAHI
Description:
Video
Format                         : AVC
Codec ID                       : V_MPEG4/ISO/AVC
Duration                       : 2 h 34 min
Bit rate                       : 512 kb/s
Width                          : 720 pixels
Height                         : 304 pixels
Display aspect ratio           : 2.35:1
Frame rate mode                : Constant
Frame rate                     : 23.976 (24000/1001) FPS
Stream size                    : 568 MiB (89%)
Writing library                : x264 core 148 r2643 5c65704

Audio
Format                         : AAC
Duration                       : 2 h 34 min
Bit rate                       : 64.3 kb/s
Channel(s)                     : 2 channels
Channel positions              : Front: L R
Sampling rate                  : 48.0 kHz
Frame rate                     : 46.875 FPS (1024 SPF)
Stream size                    : 71.3 MiB (11%)
Language                       : Hindi




Category:Movies > Bollywood
Lang:Hindi
Total Size:648.13 MB
Info Hash:10a2e76acb6a407aff7aa9f327d4b11650e6081b
Added By:gopisahi
Date Added:15-07-2017 16:42:41
Views:177
Share this article :

Post a Comment

 
Support : Website | Designed By | Katyayan
Copyright © 2017. Pre-Releaser Movies Club - All Rights Reserved
Website Created And Designed By Katyayan
Proudly powered by Blogger