Latest Movie :
Home » » Indu Sarkar (2017) - Pre DvDScr Rip - 850 MB - Mpeg With Ads

Indu Sarkar (2017) - Pre DvDScr Rip - 850 MB - Mpeg With Ads

{[['']]}
  Indu Sarkar (2017) - Pre DvDScr Rip -
850 MB - Mpeg    
 






Code

General
Format                                   : MPEG-PS
File size                                : 850 MiB
Duration                                 : 2 h 33 min

Video
ID                                       : 224 (0xE0)
Format                                   : MPEG Video
Format version                           : Version 2
Format profile                           : Main@Main
Format settings, BVOP                    : Yes
Format settings, Matrix                  : Custom
Format settings, GOP                     : Variable
Duration                                 : 2 h 33 min
Bit rate mode                            : Variable
Bit rate                                 : 670 kb/s
Width                                    : 352 pixels
Height                                   : 288 pixels
Display aspect ratio                     : 4:3
Frame rate                               : 25.000 FPS
Standard                                 : PAL
Color space                              : YUV
Chroma subsampling                       : 4:2:0
Bit depth                                : 8 bits
Scan type                                : Progressive
Stream size                              : 728 MiB (86%)

Audio
ID                                       : 192 (0xC0)
Format                                   : MPEG Audio
Format version                           : Version 1
Format profile                           : Layer 2
Duration                                 : 2 h 33 min
Bit rate mode                            : Constant
Bit rate                                 : 96.0 kb/s
Channel(s)                               : 2 channels
Sampling rate                            : 48.0 kHz
Stream size                              : 105 MiB (12%)




Thumbnail



Download-Links-300x90

|| Download This Movie Via Single Resumable Links Size: 850 MB ||

Direct-1 Google Drive | Direct-2 | Direct-3 |

Watch Online Click Below

Share this article :

Post a Comment

 
Support : Website | Designed By | Katyayan
Copyright © 2017. Pre-Releaser Movies Club - All Rights Reserved
Website Created And Designed By Katyayan
Proudly powered by Blogger