Latest Movie :
Home » , » Guest in London (2017) 720p DVDSCR x264 AAC HINDI 670MB

Guest in London (2017) 720p DVDSCR x264 AAC HINDI 670MB

{[['']]}


Poster


iMDB
Imdb Picture Title: Guest iin London
Year: 2017
Runtime: 132 minutes
Votes: 10
Rating: 7.7/10
Country: India
All Genres: Comedy, Romance
Plot Outline: A young couple in London struggle to live with their estranged aunt and uncle, who overstay their welcome.
Director: Ashwani Dhir

Produced By: Ashwani Chopra,Abhishek Pathak,Kumar Mangat Pathak,Nishant Pitti,Raaj Rahhi,Sudipto Sarkar,
Music: Amar Mohile
Plot:
A young couple in London struggle to live with their estranged aunt and uncle, who overstay their welcome.

Cast:
Kartik Aaryan as
Kriti Kharbanda as
Paresh Rawal as
Tanvi Azmi as
Sonia Albizuri as Neighbour
Ayesha Ali as Mansion Party Guest
Ize Amadasun as Mansion Party Guest
Manoj Anand as Jeeja Ji - Mansion Party Guest / Funeral Dancer
Giorgia Andriani as Funeral Dancer
Deepshikha Arora as Wedding Relative


Details
Name:Guest iin London (2017) 720p DVDSCR x264 AAC HINDI 670Mb [BisHD]
Description:



Guest iin London (2017) 720p DVDSCR x264 AAC HINDI 670Mb [BisHD]



Plot:-
A young couple in London struggle to live with their estranged aunt and uncle, who overstay their welcome.
Director: Ashwani Dhir
Stars: Kartik Aaryan, Kriti Kharbanda, Paresh Rawal
IMDB: http://www.imdb.com/title/tt6173826


Quote:
Format                                   : MPEG-4
Format profile                           : Base Media
Codec ID                                 : isom (isom/iso2/avc1/mp41)
File size                                : 669 MiB
Duration                                 : 2 h 9 min
Overall bit rate                         : 724 kb/s

Video
ID                                       : 1
Format                                   : AVC
Format/Info                              : Advanced Video Codec
Format profile                           : High@L3.1
Format settings, CABAC                   : Yes
Format settings, RefFrames               : 4 frames
Codec ID                                 : avc1
Codec ID/Info                            : Advanced Video Coding
Duration                                 : 2 h 9 min
Bit rate                                 : 590 kb/s
Width                                    : 960 pixels
Height                                   : 720 pixels
Display aspect ratio                     : 4:3
Frame rate mode                          : Constant
Frame rate                               : 25.000 FPS
Color space                              : YUV
Chroma subsampling                       : 4:2:0
Bit depth                                : 8 bits
Scan type                                : Progressive
Bits/(Pixel*Frame)                       : 0.034
Stream size                              : 545 MiB (81%)
Writing library                          : x264 core 142 r24 ea0ca51

Audio
ID                                       : 2
Format                                   : AAC
Format/Info                              : Advanced Audio Codec
Format profile                           : LC
Codec ID                                 : 40
Duration                                 : 2 h 9 min
Bit rate mode                            : Constant
Bit rate                                 : 128 kb/s
Channel(s)                               : 2 channels
Channel positions                        : Front: L R
Sampling rate                            : 48.0 kHz
Frame rate                               : 46.875 FPS (1024 SPF)
Compression mode                         : Lossy
Stream size                              : 118 MiB (18%)
Default                                  : Yes
Alternate group                          : 1



Screenshots:- Click to Enlarge:-




Category:Movies > Bollywood
Lang:Hindi
Total Size:669.05 MB



Download Links

|| Download This Movie Via Single Resumable Links Size: 669 MB ||

Direct-1 Google Drive | Direct-2 | Direct-3










Share this article :

Post a Comment

 
Support : Website | Designed By | Katyayan
Copyright © 2017. Pre-Releaser Movies Club - All Rights Reserved
Website Created And Designed By Katyayan
Proudly powered by Blogger